Jozef Van Wissem & SQÜRL / Only Lovers Left Alive
Artist Jozef Van Wissem; SQÜRL
Album Title: Only Lovers Left Alive
Album Cover:
Format CD
Released 02/17/2014
Label ATP Recordings
Catalog No ATPRCD52
Bar Code No 6 66017 27052 4
Packaging Digipack
Tracks
1. Streets Of Detroit / SQÜRL (0:35)
2. Funnel Of Love / SQÜRL (3:40)
3. Sola Gratia (Part 1) (3:24)
4. The Taste Of Blood (5:49)
5. Diamond Star / SQÜRL (1:14)
6. Please Feel Free To Piss In The Garden / SQÜRL (4:20)
7. Spooky Action At A Distance / SQÜRL (3:34)
8. Streets Of Tangier (1:35)
9. In Templum Dei / Jozef Van Wissem (2:56)
10. Sola Gratia (Part 2) (5:09)
11. Our Hearts Condemn Us / Jozef Van Wissem (4:35)
12. Hal / Yasmine Hamdan (4:29)
13. Only Lovers Left Alive (3:31)
14. This Is Your Wilderness (3:51)
Date Acquired 12/18/2016
Personal Rating
Acquired from Marvelio (Amazon)
Purchase Price 15.68

Web Links

All Music Guide entry;
Discogs entry:

Notes

Subtitles: Detroit et Tangier
Engineer – Paula Kiczek (tracks: 9, 11)
Recorded By – Shane Stoneback (tracks: 1 to 8, 13, 14)
Written-By – Carter Logan (tracks: 1, 4 to 8, 10, 13, 14), Jim Jarmusch (tracks: 1, 4 to 8, 10, 13, 14), Jozef Van Wissem (tracks: 3, 4, 8 to 11, 13, 14), Shane Stoneback (tracks: 1, 4 to 8, 10, 13, 14)
Recorded At – Treefort Studios
Mixed At – SMT Studios
Phonographic Copyright (p) – Naked Kiss Music
Copyright (c) – Naked Kiss Music
Phonographic Copyright (p) – Bad Blood Films Inc.
Copyright (c) – Bad Blood Films Inc.
Phonographic Copyright (p) – Crammed Discs
Copyright (c) – Crammed Discs
Phonographic Copyright (p) – Kwaidan Records
Copyright (c) – Kwaidan Records
Published By – Les Editions De La Bascule
Published By – Strictly Confidential (2)
Published By – Kwaidan Publishing

================================================================================
foobar2000 1.3.9 / Dynamic Range Meter 1.1.1
log date: 2016-12-24 22:07:12

--------------------------------------------------------------------------------
Analyzed: SQÜRL, Jozef van Wissem, Zola Jesus / Only Lovers Left Alive (1)
         SQÜRL, Jozef Van Wissem / Only Lovers Left Alive (2-8)
         SQÜRL, Madeline Follin / Only Lovers Left Alive (9)
         SQÜRL, Yasmine Hamdan / Only Lovers Left Alive (10)
         SQÜRL / Only Lovers Left Alive (11-14)
--------------------------------------------------------------------------------

DR         Peak         RMS     Duration Track
--------------------------------------------------------------------------------
DR9         -0.05 dB  -10.86 dB      0:36 01-Streets of Detroit
DR8           0.00 dB    -9.23 dB      3:41 02-Funnel of Love
DR11       -0.12 dB  -13.15 dB      3:25 03-Sola Gratia, Part 1
DR8           0.00 dB    -9.34 dB      5:49 04-The Taste of Blood
DR9          -0.08 dB -12.94 dB      1:15 05-Diamond Star
DR9           0.00 dB    -9.76 dB      4:20 06-Please Feel Free to Piss in the Garden
DR7           0.00 dB    -8.53 dB      3:35 07-Spooky Action at a Distance
DR11         0.00 dB  -12.30 dB      1:36 08-Streets of Tangier
DR10       -0.09 dB  -14.78 dB      2:57 09-In Templum Dei
DR10         0.00 dB  -12.16 dB      5:09 10-Sola Gratia, Part 2
DR10        -0.02 dB -10.92 dB      4:36 11-Our Hearts Condemn Us
DR9           0.00 dB  -12.28 dB      4:29 12-Hal
DR8           0.00 dB    -9.20 dB      3:31 13-Only Lovers Left Alive
DR8           0.00 dB    -9.83 dB      3:51 14-This Is Your Wilderness
--------------------------------------------------------------------------------

Number of tracks:  14
Official DR value: DR9

Samplerate:        44100 Hz
Channels:          2
Bits per sample:   16
Bitrate:           909 kbps
Codec:             FLAC
================================================================================

Reviews
AllMusic Review by Aneet Nijjar:

As an auteur with impeccable music taste, the laconic director Jim Jarmusch is no stranger to providing his films with memorable scores and moments. For his post-modern tale of vampires trying to find purpose in their immortal lives, he employs his own group, SQÜRL, to provide the brooding score for dead lovers Adam and Eve (played by Tom Hiddleston and Tilda Swinton) to explore what is a romantic paean to the bohemian artistic underground. Providing the doom-fuzzy riffs of Adam's band in the movie, Jarmusch crafts his epic score primarily with Dutch composer Jozef van Wissem, who in turn churns out atmospheric stoner riffs, gliding minimal orchestral strokes, and bewitching vocal chants. The likes of Zola Jesus and Madeline Follin from Cults make appearances, with the latter contributing to a wonderfully hazy and skuzzy version of Wanda Jackson's "Tunnel of Love," which encapsulates the film's "hipsters through the ages" aesthetic to a T.
Cover 1
Cover 2
Cover 3
Cover 4
Cover 5
Cover 6
Cover 7
Cover 8